Как тут искать? :: Кому задать вопрос? ::

Как определить качество фильма? :: Проблемы с запуском игр?


» » » Скачать Черепашки-ниндзя 2 (2016) BDRip 1080p | iTunes

Скачать Скачать Черепашки-ниндзя 2 (2016) BDRip 1080p | iTunes .torrent


Дайте оценку раздаче

Проголосовало: 19
Скачать Черепашки-ниндзя 2 (2016) BDRip 1080p | iTunes

Наименование: Черепашки-ниндзя 2
Оригинальное наименование: Teenage Mutant Ninja Turtles: Out of the Shadows
Категория: Фантастика, боевик, комедия, приключения
Произведено: США, Гонконг, Китай, Канада
Режиссер постановщик: Дэйв Грин
В главных ролях: Меган Фокс / Megan Fox (April O'Neil), Уилл Арнетт / Will Arnett (Vernon Fenwick), Лора Линни / Laura Linney (Chief Vincent), Стивен Амелл / Stephen Amell (Casey Jones), Ноэль Фишер / Noel Fisher (Michelangelo), Джереми Ховард / Jeremy Howard (Donatello), Пит Пложек / Pete Ploszek (Leonardo), Алан Ричсон / Alan Ritchson (Raphael) Краткое описание: Долгое время черепашки-ниндзя скрывались от людей в лабиринтах городской канализации. На протяжении нескольких лет учитель Сплинтер обучал их боевым искусствам и прививал им чувство справедливости. В один прекрасный момент им пришлось подняться наверх, чтобы спасти Нью-Йорк от Шредера, предводителя Клана Футов, захватившего власть в Нью-Йорке. Вместе с отважным репортером Эйприл и ее оператором Верном, бесстрашные воины смогли одержать победу и очистить любимый город от преступности. Леонардо, Микеланджело, Рафаэль и Донателло нашли свое предназначение в этом мире и стали защитниками своего города. Они навели порядок в Нью-Йорке и с чистой совестью могли отправиться на покой, но однажды им вновь пришлось столкнуться с могущественным врагом, угрожающим их городу.


Краткая информация:
Видео данные: MPEG-4 AVC, 9129 Кбит/с, 1920x800
Аудио данные: Русский (AC3, 384 Кбит/с, 6 ch), Английский (AC3, 640 Кбит/с, 6 ch)
Перевод: Дублированный [iTunes]
Продолжительность: 01:52:07




Загрузка...

Как скачать Скачать Черепашки-ниндзя 2 (2016) BDRip 1080p | iTunes?


  • Скачиваем, устанавливаем и запускаем программу u-Torrent
  • Скачиваем Скачать Черепашки-ниндзя 2 (2016) BDRip 1080p | iTunes, нажав на зеленую ссылку или выбрав одну из раздач ниже в таблице, нажав на ссылку напротив названия
  • Двойным щелчком мыши открываем файл с расширением .torrent
  • Ожидаем полной загрузки файла

Скриншоты:


Скачать Черепашки-ниндзя 2 (2016) BDRip 1080p | iTunes Скачать Черепашки-ниндзя 2 (2016) BDRip 1080p | iTunes Скачать Черепашки-ниндзя 2 (2016) BDRip 1080p | iTunes
General
Unique ID : 193309427449711223906851046245545092029 (0x916E0A9ECFCF314EBE3F33E0456D23BD)
Complete name : Teenage.Mutant.Ninja.Turtles.Out.of.the.Shadows.2016.1080p.mkv
Format : Matroska
Format version : Version 4 / Version 2
File size : 7.95 GiB
Duration : 1h 52mn
Overall bit rate : 10.2 Mbps
Encoded date : UTC 2016-09-08 06:20:47
Writing application : mkvmerge v9.4.0 ('Knurl') 64bit
Writing library : libebml v1.3.4 + libmatroska v1.4.5
DURATION : 01:52:07.616000000
NUMBER_OF_FRAMES : 210238
NUMBER_OF_BYTES : 538209280
_STATISTICS_WRITING_APP : mkvmerge v9.4.0 ('Knurl') 64bit
_STATISTICS_WRITING_DATE_UTC : 2016-09-08 06:20:47
_STATISTICS_TAGS : BPS DURATION NUMBER_OF_FRAMES NUMBER_OF_BYTES

Video
ID : 2
Format : AVC
Format/Info : Advanced Video Codec
Format profile : [email protected]
Format settings, CABAC : Yes
Format settings, ReFrames : 5 frames
Codec ID : V_MPEG4/ISO/AVC
Duration : 1h 52mn
Bit rate : 9 129 Kbps
Width : 1 920 pixels
Height : 800 pixels
Display aspect ratio : 2.40:1
Frame rate mode : Constant
Frame rate : 23.976 fps
Color space : YUV
Chroma subsampling : 4:2:0
Bit depth : 8 bits
Scan type : Progressive
Bits/(Pixel*Frame) : 0.248
Stream size : 6.99 GiB (88%)
Writing library : x264 core 148 r2692 64f4e24
Encoding settings : cabac=1 / ref=5 / deblock=1:0:0 / analyse=0x3:0x133 / me=umh / subme=7 / psy=1 / psy_rd=1.00:0.00 / mixed_ref=1 / me_range=16 / chroma_me=1 / trellis=1 / 8x8dct=1 / cqm=0 / deadzone=21,11 / fast_pskip=0 / chroma_qp_offset=-2 / threads=25 / lookahead_threads=4 / sliced_threads=0 / nr=0 / decimate=1 / interlaced=0 / bluray_compat=0 / constrained_intra=0 / bframes=3 / b_pyramid=2 / b_adapt=1 / b_bias=0 / direct=1 / weightb=1 / open_gop=0 / weightp=2 / keyint=250 / keyint_min=23 / scenecut=40 / intra_refresh=0 / rc_lookahead=40 / rc=2pass / mbtree=1 / bitrate=9129 / ratetol=1.0 / qcomp=0.60 / qpmin=0 / qpmax=69 / qpstep=4 / cplxblur=20.0 / qblur=0.5 / ip_ratio=1.40 / aq=1:1.00
Language : English
Default : Yes
Forced : No

Audio #1
ID : 1
Format : AC-3
Format/Info : Audio Coding 3
Mode extension : CM (complete main)
Format settings, Endianness : Big
Codec ID : A_AC3
Duration : 1h 52mn
Bit rate mode : Constant
Bit rate : 384 Kbps
Channel(s) : 6 channels
Channel positions : Front: L C R, Side: L R, LFE
Sampling rate : 48.0 KHz
Bit depth : 16 bits
Compression mode : Lossy
Stream size : 308 MiB (4%)
Default : Yes
Forced : No
DURATION : 01:52:07.565000000
NUMBER_OF_FRAMES : 161300
NUMBER_OF_BYTES : 7675075900
_STATISTICS_WRITING_APP : mkvmerge v9.4.0 ('Knurl') 64bit
_STATISTICS_WRITING_DATE_UTC : 2016-09-08 06:20:47
_STATISTICS_TAGS : BPS DURATION NUMBER_OF_FRAMES NUMBER_OF_BYTES

Audio #2
ID : 3
Format : AC-3
Format/Info : Audio Coding 3
Mode extension : CM (complete main)
Format settings, Endianness : Big
Codec ID : A_AC3
Duration : 1h 52mn
Bit rate mode : Constant
Bit rate : 640 Kbps
Channel(s) : 6 channels
Channel positions : Front: L C R, Side: L R, LFE
Sampling rate : 48.0 KHz
Bit depth : 16 bits
Compression mode : Lossy
Stream size : 513 MiB (6%)
Language : English
Default : No
Forced : No

Menu
00:00:00.000 : en:00:00:00.000
00:05:55.564 : en:00:05:55.564
00:12:18.571 : en:00:12:18.571
00:18:53.507 : en:00:18:53.507
00:26:38.096 : en:00:26:38.096
00:33:14.492 : en:00:33:14.492
00:38:56.459 : en:00:38:56.459
00:44:11.190 : en:00:44:11.190
00:49:40.311 : en:00:49:40.311
00:55:40.629 : en:00:55:40.629
01:02:01.259 : en:01:02:01.259
01:04:51.971 : en:01:04:51.971
01:14:32.760 : en:01:14:32.760
01:21:18.415 : en:01:21:18.415
01:28:10.160 : en:01:28:10.160
01:36:58.229 : en:01:36:58.229
01:41:52.023 : en:01:41:52.023
01:46:20.874 : en:01:46:20.874

Скачайте по прямой ссылке или выберите альтернативную раздачу из таблицы ниже:


Список Ваших закладок можно увидеть, нажав клавишу "Мои закладки".
При наличии нескольких ссылок для скачивания ОБЯЗАТЕЛЬНО проверяйте список файлов для того, что скачать именно то, что Вам нужно (к примеру определенные серии сериала)

Загрузил: Farinopsis (8 сентября 2016 11:08)
Управление: [обновить]
Взяли: 2 | Размер: 7.95 Gb
Статистика: Раздают: 20 Качают: 50 Скачали: 38
Содержание:
Teenage.Mutant.Ninja.Turtles.Out.of.the.Shadows.2016.1080p.mkv (7.95 Gb)

загрузка...
Уважаемые пользователи! Ниже, для Вашего удобства, мы разместили несколько альтернативных раздач файла "Скачать Черепашки-ниндзя 2 (2016) BDRip 1080p | iTunes". Вам предоставляется возможность выбора из всевозможных доступных Repack'ов.


Поблагодарить:

На данной странице любой пользователь может скачать торрент Скачать Черепашки-ниндзя 2 (2016) BDRip 1080p | iTunes 2016 на высокой скорости. Для удобства пользователей, любые файлы у нас скачивают без регистрации и без рейтинга на сайте RuTracker2.org.

Мы всегда стараемся выкладывать самые свежие репаки, в том числе и Скачать Черепашки-ниндзя 2 (2016) BDRip 1080p | iTunes на русском языке (по возможности, если он официально выпущен в свободный доступ), поэтому добавляйте сайт rutracker2.org в закладки и в случае, если не доступен rutor.org или не работает rutracker.org мы всегда спешим к Вам на помощь, чтоб предоставить возможность скачать торренты.

Оставьте свой комментарий
Ваше Имя:
Ваш E-Mail:
Полужирный Наклонный текст Подчёркнутый текст Зачёркнутый текст | Выравнивание по левому краю По центру Выравнивание по правому краю | Вставка смайликов Вставка ссылкиВставка защищённой ссылки Выбор цвета | Скрытый текст Вставка цитаты Преобразовать выбранный текст из транслитерации в кириллицу Вставка спойлера
Кликните на изображение чтобы обновить код, если он неразборчив
Введите код:
Оставьте свой комментарий Вконтакте