Как тут искать? :: Кому задать вопрос? ::

Как определить качество фильма? :: Проблемы с запуском игр?


» » » Скачать Черепашки-ниндзя 2 (2016) BDRip 720р | Лицензия | R.G.Resident

Скачать Скачать Черепашки-ниндзя 2 (2016) BDRip 720р | Лицензия | R.G.Resident .torrent


Дайте оценку раздаче

Проголосовало: 19
Скачать Черепашки-ниндзя 2 (2016) BDRip 720р | Лицензия | R.G.Resident

Наименование: Черепашки-ниндзя 2
Оригинальное наименование: Teenage Mutant Ninja Turtles: Out of the Shadows
Категория: фантастика, боевик, комедия, приключения
Произведено: США, Гонконг, Китай, Канада
Режиссер постановщик: Дэйв Грин
В главных ролях: Меган Фокс, Алан Ричсон, Уилл Арнетт, Стефен Фаррелли, Алессандра Амброзио, Брэд Гэррет, Тайлер Перри Краткое описание: Долгое время черепашки-ниндзя скрывались от людей в лабиринтах городской канализации. На протяжении нескольких лет учитель Сплинтер обучал их боевым искусствам и прививал им чувство справедливости. В один прекрасный момент им пришлось подняться наверх, чтобы спасти Нью-Йорк от Шредера, предводителя Клана Футов, захватившего власть в Нью-Йорке. Вместе с отважным репортером Эйприл и ее оператором Верном, бесстрашные воины смогли одержать победу и очистить любимый город от преступности. Леонардо, Микеланджело, Рафаэль и Донателло нашли свое предназначение в этом мире и стали защитниками своего города. Они навели порядок в Нью-Йорке и с чистой совестью могли отправиться на покой, но однажды им вновь пришлось столкнуться с могущественным врагом, угрожающим их городу.


Краткая информация:
Видео данные: MPEG-4 AVC, 9178 Кбит/с, 1280x534
Аудио данные: Русский (AC3, 6 ch, 640 Кбит/с), английский (АС3, 6 ch, 640 Кбит/с)
Перевод: Дубляж - [Лицензия]
Продолжительность: 01:52:09
Субтитры: русские (Forced), русские (Full), английские (Full), английские (SDH)




Загрузка...

Как скачать Скачать Черепашки-ниндзя 2 (2016) BDRip 720р | Лицензия | R.G.Resident?


  • Скачиваем, устанавливаем и запускаем программу u-Torrent
  • Скачиваем Скачать Черепашки-ниндзя 2 (2016) BDRip 720р | Лицензия | R.G.Resident, нажав на зеленую ссылку или выбрав одну из раздач ниже в таблице, нажав на ссылку напротив названия
  • Двойным щелчком мыши открываем файл с расширением .torrent
  • Ожидаем полной загрузки файла

Скриншоты:


Скачать Черепашки-ниндзя 2 (2016) BDRip 720р | Лицензия | R.G.Resident Скачать Черепашки-ниндзя 2 (2016) BDRip 720р | Лицензия | R.G.Resident Скачать Черепашки-ниндзя 2 (2016) BDRip 720р | Лицензия | R.G.Resident
x264 [info]: frame I:1400 Avg QP:12.79 size:186991
x264 [info]: frame P:50665 Avg QP:16.20 size: 73704
x264 [info]: frame B:109236 Avg QP:18.42 size: 34057

General
Unique ID : 229435668461681240532269285471048143432 (0xAC9BB3D1CD7EDC81B7B124EA2FCF9248)
Complete name : D:downloadTeenage.Mutant.Ninja.Turtles.Out.Of.The.Shadows.2016.BDRip 720р by schultz R.G.Resident.mkv
Format : Matroska
Format version : Version 4 / Version 2
File size : 8.19 GiB
Duration : 1 h 52 min
Overall bit rate : 10.5 Mb/s
Encoded date : UTC 2016-09-11 10:00:12
Writing application : mkvmerge v8.9.0 ('Father Daughter') 64bit
Writing library : libebml v1.3.3 + libmatroska v1.4.4

Video
ID : 1
Format : AVC
Format/Info : Advanced Video Codec
Format profile : [email protected]
Format settings, CABAC : Yes
Format settings, ReFrames : 12 frames
Codec ID : V_MPEG4/ISO/AVC
Duration : 1 h 52 min
Bit rate : 9 178 kb/s
Width : 1 280 pixels
Height : 534 pixels
Display aspect ratio : 2.40:1
Frame rate mode : Constant
Frame rate : 23.976 (23976/1000) FPS
Color space : YUV
Chroma subsampling : 4:2:0
Bit depth : 8 bits
Scan type : Progressive
Bits/(Pixel*Frame) : 0.560
Stream size : 7.19 GiB (88%)
Writing library : x264 core 146 r2538 121396c
Encoding settings : cabac=1 / ref=12 / deblock=1:-3:-3 / analyse=0x3:0x113 / me=umh / subme=11 / psy=1 / psy_rd=1.00:0.00 / mixed_ref=1 / me_range=48 / chroma_me=1 / trellis=2 / 8x8dct=1 / cqm=0 / deadzone=21,11 / fast_pskip=0 / chroma_qp_offset=-2 / threads=12 / lookahead_threads=3 / sliced_threads=0 / nr=0 / decimate=0 / interlaced=0 / bluray_compat=0 / constrained_intra=0 / bframes=11 / b_pyramid=2 / b_adapt=2 / b_bias=0 / direct=3 / weightb=1 / open_gop=0 / weightp=2 / keyint=240 / keyint_min=23 / scenecut=40 / intra_refresh=0 / rc_lookahead=40 / rc=2pass / mbtree=1 / bitrate=9178 / ratetol=1.0 / qcomp=0.60 / qpmin=0 / qpmax=69 / qpstep=4 / cplxblur=20.0 / qblur=0.5 / vbv_maxrate=50000 / vbv_bufsize=62500 / nal_hrd=none / filler=0 / ip_ratio=1.40 / aq=1:1.00
Language : English
Default : Yes
Forced : No

Audio #1
ID : 2
Format : AC-3
Format/Info : Audio Coding 3
Mode extension : CM (complete main)
Format settings, Endianness : Big
Codec ID : A_AC3
Duration : 1 h 52 min
Bit rate mode : Constant
Bit rate : 640 kb/s
Channel(s) : 6 channels
Channel positions : Front: L C R, Side: L R, LFE
Sampling rate : 48.0 kHz
Frame rate : 31.250 FPS (1536 spf)
Compression mode : Lossy
Stream size : 513 MiB (6%)
Language : Russian
Default : Yes
Forced : No

Audio #2
ID : 3
Format : AC-3
Format/Info : Audio Coding 3
Mode extension : CM (complete main)
Format settings, Endianness : Big
Codec ID : A_AC3
Duration : 1 h 52 min
Bit rate mode : Constant
Bit rate : 640 kb/s
Channel(s) : 6 channels
Channel positions : Front: L C R, Side: L R, LFE
Sampling rate : 48.0 kHz
Frame rate : 31.250 FPS (1536 spf)
Compression mode : Lossy
Stream size : 513 MiB (6%)
Language : English
Default : No
Forced : No

Text #1
ID : 4
Format : UTF-8
Codec ID : S_TEXT/UTF8
Codec ID/Info : UTF-8 Plain Text
Duration : 1 h 41 min
Bit rate : 0 b/s
Count of elements : 11
Stream size : 371 Bytes (0%)
Title : Forced
Language : Russian
Default : Yes
Forced : No

Text #2
ID : 5
Format : UTF-8
Codec ID : S_TEXT/UTF8
Codec ID/Info : UTF-8 Plain Text
Duration : 1 h 43 min
Bit rate : 95 b/s
Count of elements : 1371
Stream size : 72.5 KiB (0%)
Title : Full
Language : Russian
Default : No
Forced : No

Text #3
ID : 6
Format : UTF-8
Codec ID : S_TEXT/UTF8
Codec ID/Info : UTF-8 Plain Text
Duration : 1 h 42 min
Bit rate : 65 b/s
Count of elements : 1508
Stream size : 49.4 KiB (0%)
Title : Full
Language : English
Default : No
Forced : No

Text #4
ID : 7
Format : UTF-8
Codec ID : S_TEXT/UTF8
Codec ID/Info : UTF-8 Plain Text
Duration : 1 h 43 min
Bit rate : 74 b/s
Count of elements : 1879
Stream size : 56.7 KiB (0%)
Title : SDH
Language : English
Default : No
Forced : No

Menu
00:00:00.000 : en:00:00:00.000
00:05:55.564 : en:00:05:55.564
00:12:18.571 : en:00:12:18.571
00:18:53.507 : en:00:18:53.507
00:26:38.096 : en:00:26:38.096
00:33:14.492 : en:00:33:14.492
00:38:56.459 : en:00:38:56.459
00:44:11.190 : en:00:44:11.190
00:49:40.311 : en:00:49:40.311
00:55:40.629 : en:00:55:40.629
01:02:01.259 : en:01:02:01.259
01:04:51.971 : en:01:04:51.971
01:14:32.760 : en:01:14:32.760
01:21:18.415 : en:01:21:18.415
01:28:10.160 : en:01:28:10.160
01:36:58.229 : en:01:36:58.229
01:41:52.023 : en:01:41:52.023
01:46:20.874 : en:01:46:20.874

Скачайте по прямой ссылке или выберите альтернативную раздачу из таблицы ниже:


Список Ваших закладок можно увидеть, нажав клавишу "Мои закладки".
При наличии нескольких ссылок для скачивания ОБЯЗАТЕЛЬНО проверяйте список файлов для того, что скачать именно то, что Вам нужно (к примеру определенные серии сериала)

Загрузил: Rasin (11 сентября 2016 15:26)
Управление: [обновить]
Взяли: 2 | Размер: 8.19 Gb
Статистика: Раздают: 5 Качают: 14 Скачали: 870
Содержание:
Teenage.Mutant.Ninja.Turtles.Out.Of.The.Shadows.2016.BDRip 720р by schultz R.G.Resident.mkv (8.19 Gb)

загрузка...
Уважаемые пользователи! Ниже, для Вашего удобства, мы разместили несколько альтернативных раздач файла "Скачать Черепашки-ниндзя 2 (2016) BDRip 720р | Лицензия | R.G.Resident". Вам предоставляется возможность выбора из всевозможных доступных Repack'ов.


Поблагодарить:

На данной странице любой пользователь может скачать торрент Скачать Черепашки-ниндзя 2 (2016) BDRip 720р | Лицензия | R.G.Resident 2016 на высокой скорости. Для удобства пользователей, любые файлы у нас скачивают без регистрации и без рейтинга на сайте RuTracker2.org.

Мы всегда стараемся выкладывать самые свежие репаки, в том числе и Скачать Черепашки-ниндзя 2 (2016) BDRip 720р | Лицензия | R.G.Resident на русском языке (по возможности, если он официально выпущен в свободный доступ), поэтому добавляйте сайт rutracker2.org в закладки и в случае, если не доступен rutor.org или не работает rutracker.org мы всегда спешим к Вам на помощь, чтоб предоставить возможность скачать торренты.

Оставьте свой комментарий
Ваше Имя:
Ваш E-Mail:
Полужирный Наклонный текст Подчёркнутый текст Зачёркнутый текст | Выравнивание по левому краю По центру Выравнивание по правому краю | Вставка смайликов Вставка ссылкиВставка защищённой ссылки Выбор цвета | Скрытый текст Вставка цитаты Преобразовать выбранный текст из транслитерации в кириллицу Вставка спойлера
Кликните на изображение чтобы обновить код, если он неразборчив
Введите код:
Оставьте свой комментарий Вконтакте