Как тут искать? :: Кому задать вопрос? ::

Как определить качество фильма? :: Проблемы с запуском игр?


» » » Охотники за привидениями (2016) BDRip-AVC | Extended Cut | iTunes | R.G.Resident

Скачать Охотники за привидениями (2016) BDRip-AVC | Extended Cut | iTunes | R.G.Resident .torrent


Дайте оценку раздаче

Проголосовало: 2
Охотники за привидениями (2016) BDRip-AVC | Extended Cut | iTunes | R.G.Resident

Наименование: Охотники за привидениями
Оригинальное наименование: Ghostbusters
Категория: фантастика, фэнтези, боевик, комедия
Произведено: США, Австралия
Режиссер постановщик: Пол Фиг
В главных ролях: Мелисса МакКарти, Кристен Уиг, Кейт МакКиннон, Лесли Джонс, Крис Хемсворт, Сесили Стронг, Энди Гарсиа, Нил Кэйси, Чарльз Дэнс, Майкл Кеннет Уильямс Краткое описание: Тридцать лет назад охотники за привидениями спасли Нью-Йорк от нашествия призраков, но теперь городу вновь угрожает опасность. Былые герои не могут стать на его защиту, но находятся и другие отважные люди, всю свою жизнь посвятившие изучению паранормальных явлений. Эбби Йейтс объединяется с Эрин Гилберт, пожалуй лучшим специалистом в квантовой физике, и вместе они собирают команду новых охотников за привидениями, в которую принимают отличного инженера Джиллиан Хольцман, сотрудницу метрополитена Пэтти Толан, знающую город как свои пять пальцев, и секретаря - настоящего красавчика Кэвина. Вместе они начинают борьбу с нечистой силой, терроризирующей мегаполис...


Краткая информация:
Видео данные: MPEG-4 AVC, 3000 Кбит/с, 1024x428
Аудио данные: Русский (AC3, 6 ch, 384 Кбит/с), английский (АС3, 6 ch, 448 Кбит/с)
Перевод: Дубляж - [iTunes]
Продолжительность: 02:13:44
Субтитры: английские (Full), английские (SDH)




Загрузка...

Как скачать Охотники за привидениями (2016) BDRip-AVC | Extended Cut | iTunes | R.G.Resident?


  • Скачиваем, устанавливаем и запускаем программу u-Torrent
  • Скачиваем Охотники за привидениями (2016) BDRip-AVC | Extended Cut | iTunes | R.G.Resident, нажав на зеленую ссылку или выбрав одну из раздач ниже в таблице, нажав на ссылку напротив названия
  • Двойным щелчком мыши открываем файл с расширением .torrent
  • Ожидаем полной загрузки файла

Скриншоты:


Охотники за привидениями (2016) BDRip-AVC | Extended Cut | iTunes | R.G.Resident Охотники за привидениями (2016) BDRip-AVC | Extended Cut | iTunes | R.G.Resident Охотники за привидениями (2016) BDRip-AVC | Extended Cut | iTunes | R.G.Resident
General
Unique ID : 207112990205643537309670344673461983376 (0x9BD082CEFC897144B6E881AB7F1AD890)
Complete name : D:downloadGhostbusters.2016.BDRip-AVC Extended Cut by schultz R.G.Resident.mkv
Format : Matroska
Format version : Version 4 / Version 2
File size : 3.58 GiB
Duration : 2 h 13 min
Overall bit rate : 3 835 kb/s
Encoded date : UTC 2016-10-31 00:56:43
Writing application : mkvmerge v8.9.0 ('Father Daughter') 64bit
Writing library : libebml v1.3.3 + libmatroska v1.4.4

Video
ID : 1
Format : AVC
Format/Info : Advanced Video Codec
Format profile : [email protected]
Format settings, CABAC : Yes
Format settings, ReFrames : 12 frames
Codec ID : V_MPEG4/ISO/AVC
Duration : 2 h 13 min
Bit rate : 3 000 kb/s
Width : 1 024 pixels
Height : 428 pixels
Display aspect ratio : 2.40:1
Frame rate mode : Constant
Frame rate : 23.976 (23976/1000) FPS
Color space : YUV
Chroma subsampling : 4:2:0
Bit depth : 8 bits
Scan type : Progressive
Bits/(Pixel*Frame) : 0.285
Stream size : 2.80 GiB (78%)
Writing library : x264 core 146 r2538 121396c
Encoding settings : cabac=1 / ref=12 / deblock=1:-3:-3 / analyse=0x3:0x113 / me=umh / subme=11 / psy=1 / psy_rd=1.00:0.00 / mixed_ref=1 / me_range=48 / chroma_me=1 / trellis=2 / 8x8dct=1 / cqm=0 / deadzone=21,11 / fast_pskip=0 / chroma_qp_offset=-2 / threads=12 / lookahead_threads=3 / sliced_threads=0 / nr=0 / decimate=0 / interlaced=0 / bluray_compat=0 / constrained_intra=0 / bframes=11 / b_pyramid=2 / b_adapt=2 / b_bias=0 / direct=3 / weightb=1 / open_gop=0 / weightp=2 / keyint=240 / keyint_min=23 / scenecut=40 / intra_refresh=0 / rc_lookahead=40 / rc=2pass / mbtree=1 / bitrate=3000 / ratetol=1.0 / qcomp=0.60 / qpmin=0 / qpmax=69 / qpstep=4 / cplxblur=20.0 / qblur=0.5 / vbv_maxrate=50000 / vbv_bufsize=62500 / nal_hrd=none / filler=0 / ip_ratio=1.40 / aq=1:1.00
Language : English
Default : Yes
Forced : No

Audio #1
ID : 2
Format : AC-3
Format/Info : Audio Coding 3
Mode extension : CM (complete main)
Format settings, Endianness : Big
Codec ID : A_AC3
Duration : 2 h 13 min
Bit rate mode : Constant
Bit rate : 384 kb/s
Channel(s) : 6 channels
Channel positions : Front: L C R, Side: L R, LFE
Sampling rate : 48.0 kHz
Frame rate : 31.250 FPS (1536 spf)
Compression mode : Lossy
Stream size : 367 MiB (10%)
Language : Russian
Default : Yes
Forced : Yes

Audio #2
ID : 3
Format : AC-3
Format/Info : Audio Coding 3
Mode extension : CM (complete main)
Format settings, Endianness : Big
Codec ID : A_AC3
Duration : 2 h 13 min
Bit rate mode : Constant
Bit rate : 448 kb/s
Channel(s) : 6 channels
Channel positions : Front: L C R, Side: L R, LFE
Sampling rate : 48.0 kHz
Frame rate : 31.250 FPS (1536 spf)
Compression mode : Lossy
Stream size : 429 MiB (12%)
Language : English
Default : No
Forced : No

Text #1
ID : 4
Format : UTF-8
Codec ID : S_TEXT/UTF8
Codec ID/Info : UTF-8 Plain Text
Duration : 2 h 12 min
Bit rate : 92 b/s
Count of elements : 2621
Stream size : 89.8 KiB (0%)
Title : Full
Language : English
Default : No
Forced : No

Text #2
ID : 5
Format : UTF-8
Codec ID : S_TEXT/UTF8
Codec ID/Info : UTF-8 Plain Text
Duration : 2 h 12 min
Bit rate : 100 b/s
Count of elements : 2903
Stream size : 97.8 KiB (0%)
Title : SDH
Language : English
Default : No
Forced : No

Menu
00:00:00.000 : en:00:00:00.000
00:10:26.626 : en:00:10:26.626
00:17:52.405 : en:00:17:52.405
00:23:00.879 : en:00:23:00.879
00:28:51.521 : en:00:28:51.521
00:37:36.629 : en:00:37:36.629
00:42:48.566 : en:00:42:48.566
00:49:06.068 : en:00:49:06.068
01:00:15.153 : en:01:00:15.153
01:05:10.073 : en:01:05:10.073
01:10:32.978 : en:01:10:32.978
01:16:51.940 : en:01:16:51.940
01:29:05.882 : en:01:29:05.882
01:37:40.521 : en:01:37:40.521
01:47:35.073 : en:01:47:35.073
01:59:31.706 : en:01:59:31.706

Скачайте по прямой ссылке или выберите альтернативную раздачу из таблицы ниже:


Список Ваших закладок можно увидеть, нажав клавишу "Мои закладки".
При наличии нескольких ссылок для скачивания ОБЯЗАТЕЛЬНО проверяйте список файлов для того, что скачать именно то, что Вам нужно (к примеру определенные серии сериала)

 
 
Ghostbusters.2016.BDRip-AVC Extended Cut by schultz R.G.Resident.mkv.torrent
Загрузил: 2Nika (31 октября 2016 06:11)
Управление: [обновить]
Взяли: 0 | Размер: 3.58 Gb
Статистика: Раздают: 81 Качают: 84 Скачали: 15
Содержание:
Ghostbusters.2016.BDRip-AVC Extended Cut by schultz R.G.Resident.mkv (3.58 Gb)

загрузка...
Уважаемые пользователи! Ниже, для Вашего удобства, мы разместили несколько альтернативных раздач файла "Охотники за привидениями (2016) BDRip-AVC | Extended Cut | iTunes | R.G.Resident". Вам предоставляется возможность выбора из всевозможных доступных Repack'ов.


Поблагодарить:

На данной странице любой пользователь может скачать торрент Охотники за привидениями (2016) BDRip-AVC | Extended Cut | iTunes | R.G.Resident 2016 на высокой скорости. Для удобства пользователей, любые файлы у нас скачивают без регистрации и без рейтинга на сайте RuTracker2.org.

Мы всегда стараемся выкладывать самые свежие репаки, в том числе и Охотники за привидениями (2016) BDRip-AVC | Extended Cut | iTunes | R.G.Resident на русском языке (по возможности, если он официально выпущен в свободный доступ), поэтому добавляйте сайт rutracker2.org в закладки и в случае, если не доступен rutor.org или не работает rutracker.org мы всегда спешим к Вам на помощь, чтоб предоставить возможность скачать торренты.

Оставьте свой комментарий
Ваше Имя:
Ваш E-Mail:
Полужирный Наклонный текст Подчёркнутый текст Зачёркнутый текст | Выравнивание по левому краю По центру Выравнивание по правому краю | Вставка смайликов Вставка ссылкиВставка защищённой ссылки Выбор цвета | Скрытый текст Вставка цитаты Преобразовать выбранный текст из транслитерации в кириллицу Вставка спойлера
Кликните на изображение чтобы обновить код, если он неразборчив
Введите код:
Оставьте свой комментарий Вконтакте