Как тут искать? :: Кому задать вопрос? ::

Как определить качество фильма? :: Проблемы с запуском игр?


» » » Пит и его дракон (2016) BDRip 720p | Лицензия | R.G.Resident

Скачать Пит и его дракон (2016) BDRip 720p | Лицензия | R.G.Resident .torrent


Дайте оценку раздаче

Проголосовало: 13
Пит и его дракон (2016) BDRip 720p | Лицензия | R.G.Resident

Наименование: Пит и его дракон
Оригинальное наименование: Pete's Dragon
Категория: фэнтези, приключения, семейный
Произведено: США
Режиссер постановщик: Дэвид Лоури
В главных ролях: Брайс Даллас Ховард, Роберт Редфорд, Оакс Фигли, Уна Лоуренс, Уэс Бентли, Карл Урбан, Исайя Уитлок мл., Маркус Хендерсон, Аарон Джексон, Филип Грив Краткое описание: В течение многих лет Мистер Мичем забавлял местных детишек сказочными историями о свирепом драконе, обитающим на севере, глубоко в лесах. Для его дочери Грейс все эти истории казались ничем иным как выдумкой, ровно до тех пор, пока она не встретила в лесу маленького мальчика по имени Пит. Пит уже долгое время живет в диком лесу, у него нет ни дома, ни семьи, зато есть замечательный друг - огромный зеленый дракон Эллиот. Грейс решает разгадать историю юного Пита, узнать всю правду о его семье и загадочном драконе, о котором ходит так много слухов и легенд.


Краткая информация:
Видео данные: MPEG-4 AVC, 4015 Кбит/с, 1280x534
Аудио данные: Русский (AC3, 6 ch, 640 Кбит/с), английский (АС3, 6 ch, 640 Кбит/с)
Перевод: Дубляж - [BD CEE]
Продолжительность: 01:42:45
Субтитры: русские (forced), русские (full), английские (full), английские (SDH)




Загрузка...

Как скачать Пит и его дракон (2016) BDRip 720p | Лицензия | R.G.Resident?


  • Скачиваем, устанавливаем и запускаем программу u-Torrent
  • Скачиваем Пит и его дракон (2016) BDRip 720p | Лицензия | R.G.Resident, нажав на зеленую ссылку или выбрав одну из раздач ниже в таблице, нажав на ссылку напротив названия
  • Двойным щелчком мыши открываем файл с расширением .torrent
  • Ожидаем полной загрузки файла

Скриншоты:


Пит и его дракон (2016) BDRip 720p | Лицензия | R.G.Resident Пит и его дракон (2016) BDRip 720p | Лицензия | R.G.Resident Пит и его дракон (2016) BDRip 720p | Лицензия | R.G.Resident
x264 [info]: frame I:1341 Avg QP:10.36 size:142739
x264 [info]: frame P:35436 Avg QP:14.05 size: 44966
x264 [info]: frame B:111047 Avg QP:16.74 size: 11789

General
Unique ID : 224179398718088982578585242422333595220 (0xA8A761B67976458E96221E355436DE54)
Complete name : D:downloadPetes.Dragon.2016.BDRip 720p by schultz R.G.Resident.mkv
Format : Matroska
Format version : Version 4 / Version 2
File size : 3.80 GiB
Duration : 1 h 42 min
Overall bit rate : 5 297 kb/s
Encoded date : UTC 2016-11-20 20:27:15
Writing application : mkvmerge v8.9.0 ('Father Daughter') 64bit
Writing library : libebml v1.3.3 + libmatroska v1.4.4

Video
ID : 1
Format : AVC
Format/Info : Advanced Video Codec
Format profile : [email protected]
Format settings, CABAC : Yes
Format settings, ReFrames : 12 frames
Codec ID : V_MPEG4/ISO/AVC
Duration : 1 h 42 min
Bit rate : 4 015 kb/s
Width : 1 280 pixels
Height : 534 pixels
Display aspect ratio : 2.40:1
Frame rate mode : Constant
Frame rate : 23.976 (23976/1000) FPS
Color space : YUV
Chroma subsampling : 4:2:0
Bit depth : 8 bits
Scan type : Progressive
Bits/(Pixel*Frame) : 0.245
Stream size : 2.88 GiB (76%)
Writing library : x264 core 146 r2538 121396c
Encoding settings : cabac=1 / ref=12 / deblock=1:-3:-3 / analyse=0x3:0x113 / me=umh / subme=11 / psy=1 / psy_rd=1.00:0.00 / mixed_ref=1 / me_range=48 / chroma_me=1 / trellis=2 / 8x8dct=1 / cqm=0 / deadzone=21,11 / fast_pskip=0 / chroma_qp_offset=-2 / threads=12 / lookahead_threads=3 / sliced_threads=0 / nr=0 / decimate=0 / interlaced=0 / bluray_compat=0 / constrained_intra=0 / bframes=11 / b_pyramid=2 / b_adapt=2 / b_bias=0 / direct=3 / weightb=1 / open_gop=0 / weightp=2 / keyint=240 / keyint_min=23 / scenecut=40 / intra_refresh=0 / rc_lookahead=40 / rc=2pass / mbtree=1 / bitrate=4015 / ratetol=1.0 / qcomp=0.60 / qpmin=0 / qpmax=69 / qpstep=4 / cplxblur=20.0 / qblur=0.5 / vbv_maxrate=50000 / vbv_bufsize=62500 / nal_hrd=none / filler=0 / ip_ratio=1.40 / aq=1:1.00
Language : English
Default : Yes
Forced : No

Audio #1
ID : 2
Format : AC-3
Format/Info : Audio Coding 3
Mode extension : CM (complete main)
Format settings, Endianness : Big
Codec ID : A_AC3
Duration : 1 h 42 min
Bit rate mode : Constant
Bit rate : 640 kb/s
Channel(s) : 6 channels
Channel positions : Front: L C R, Side: L R, LFE
Sampling rate : 48.0 kHz
Frame rate : 31.250 FPS (1536 spf)
Compression mode : Lossy
Stream size : 470 MiB (12%)
Language : Russian
Default : Yes
Forced : No

Audio #2
ID : 3
Format : AC-3
Format/Info : Audio Coding 3
Mode extension : CM (complete main)
Format settings, Endianness : Big
Codec ID : A_AC3
Duration : 1 h 42 min
Bit rate mode : Constant
Bit rate : 640 kb/s
Channel(s) : 6 channels
Channel positions : Front: L C R, Side: L R, LFE
Sampling rate : 48.0 kHz
Frame rate : 31.250 FPS (1536 spf)
Compression mode : Lossy
Stream size : 470 MiB (12%)
Language : English
Default : No
Forced : No

Text #1
ID : 4
Format : UTF-8
Codec ID : S_TEXT/UTF8
Codec ID/Info : UTF-8 Plain Text
Duration : 1 h 22 min
Bit rate : 0 b/s
Count of elements : 5
Stream size : 213 Bytes (0%)
Title : forced
Language : Russian
Default : Yes
Forced : No

Text #2
ID : 5
Format : UTF-8
Codec ID : S_TEXT/UTF8
Codec ID/Info : UTF-8 Plain Text
Duration : 1 h 35 min
Bit rate : 48 b/s
Count of elements : 864
Stream size : 34.4 KiB (0%)
Title : full
Language : Russian
Default : No
Forced : No

Text #3
ID : 6
Format : UTF-8
Codec ID : S_TEXT/UTF8
Codec ID/Info : UTF-8 Plain Text
Duration : 1 h 39 min
Bit rate : 38 b/s
Count of elements : 1030
Stream size : 27.6 KiB (0%)
Title : full
Language : English
Default : No
Forced : No

Text #4
ID : 7
Format : UTF-8
Codec ID : S_TEXT/UTF8
Codec ID/Info : UTF-8 Plain Text
Duration : 1 h 41 min
Bit rate : 42 b/s
Count of elements : 1231
Stream size : 31.8 KiB (0%)
Title : SDH
Language : English
Default : No
Forced : No

Menu
00:00:00.000 : en:Family Vacation
00:06:03.989 : en:The Tale of Dragons
00:09:46.669 : en:Playtime with Elliot
00:15:20.128 : en:Forest Ranger Grace
00:21:28.496 : en:A New Friend
00:30:23.447 : en:Hospital Escape
00:36:57.966 : en:Finding Elliot
00:44:03.057 : en:The Meacham Family
00:52:28.062 : en:Replaced
00:56:42.566 : en:The Truth
01:03:13.832 : en:Capture
01:10:07.078 : en:Escape Plan
01:17:17.508 : en:Standoff at the Bridge
01:26:46.034 : en:Together Again
01:32:26.750 : en:Epilogue
01:35:01.362 : en:Credits

Скачайте по прямой ссылке или выберите альтернативную раздачу из таблицы ниже:


Список Ваших закладок можно увидеть, нажав клавишу "Мои закладки".
При наличии нескольких ссылок для скачивания ОБЯЗАТЕЛЬНО проверяйте список файлов для того, что скачать именно то, что Вам нужно (к примеру определенные серии сериала)

 
 
Petes.Dragon.2016.BDRip 720p by schultz R.G.Resident.mkv.torrent
Загрузил: Rasin (21 ноября 2016 02:00)
Управление: [обновить]
Взяли: 5 | Размер: 3.8 Gb
Статистика: Раздают: 58 Качают: 5 Скачали: 1053
Содержание:
Petes.Dragon.2016.BDRip 720p by schultz R.G.Resident.mkv (3.8 Gb)

загрузка...
Уважаемые пользователи! Ниже, для Вашего удобства, мы разместили несколько альтернативных раздач файла "Пит и его дракон (2016) BDRip 720p | Лицензия | R.G.Resident". Вам предоставляется возможность выбора из всевозможных доступных Repack'ов.


Поблагодарить:

На данной странице любой пользователь может скачать торрент Пит и его дракон (2016) BDRip 720p | Лицензия | R.G.Resident 2016 на высокой скорости. Для удобства пользователей, любые файлы у нас скачивают без регистрации и без рейтинга на сайте RuTracker2.org.

Мы всегда стараемся выкладывать самые свежие репаки, в том числе и Пит и его дракон (2016) BDRip 720p | Лицензия | R.G.Resident на русском языке (по возможности, если он официально выпущен в свободный доступ), поэтому добавляйте сайт rutracker2.org в закладки и в случае, если не доступен rutor.org или не работает rutracker.org мы всегда спешим к Вам на помощь, чтоб предоставить возможность скачать торренты.

Оставьте свой комментарий
Ваше Имя:
Ваш E-Mail:
Полужирный Наклонный текст Подчёркнутый текст Зачёркнутый текст | Выравнивание по левому краю По центру Выравнивание по правому краю | Вставка смайликов Вставка ссылкиВставка защищённой ссылки Выбор цвета | Скрытый текст Вставка цитаты Преобразовать выбранный текст из транслитерации в кириллицу Вставка спойлера
Кликните на изображение чтобы обновить код, если он неразборчив
Введите код:
Оставьте свой комментарий Вконтакте