Как тут искать? :: Кому задать вопрос? ::

Как определить качество фильма? :: Проблемы с запуском игр?


» » » Скачать Отмель (2016) BDRip-AVC | iTunes

Скачать Скачать Отмель (2016) BDRip-AVC | iTunes .torrent


Дайте оценку раздаче

Проголосовало: 10
Скачать Отмель (2016) BDRip-AVC | iTunes

Наименование: Отмель
Оригинальное наименование: The Shallows
Категория: Ужасы, триллер, драма
Произведено: США, Columbia Pictures, Ombra Films, Weimaraner Republic Pictures
Режиссер: Жауме Коллет-Серра
В главных ролях: Блэйк Лайвли, Оскар Хаэнада, Бретт Каллен, Седона Ледже Краткое описание: Бескрайний океан, безлюдный пляж и идеальная погода для серфингистов в поисках хорошей волны. Казалось бы, ничто не предвещает беды для очаровательной любительницы серфинга в одиночку. Разве что свидание тет-а-тет с гигантской акулой, которая загонит спортсменку на песчаную отмель и не отступит до тех пор, пока не получит своё.


Краткая информация:
Видео данные: MPEG-4 AVC, 2500 Кбит/с, 1024x428
Аудио данные: Русский (AC3, 6 ch, 384 Кбит/с), английский (AC3, 6 ch, 448 Кбит/с)
Перевод: Дублированный [iTunes]
Продолжительность: 01:26:14
Субтитры: Русские, английские
Без рекламы.




Загрузка...

Как скачать Скачать Отмель (2016) BDRip-AVC | iTunes?


  • Скачиваем, устанавливаем и запускаем программу u-Torrent
  • Скачиваем Скачать Отмель (2016) BDRip-AVC | iTunes, нажав на зеленую ссылку или выбрав одну из раздач ниже в таблице, нажав на ссылку напротив названия
  • Двойным щелчком мыши открываем файл с расширением .torrent
  • Ожидаем полной загрузки файла

Скриншоты:


Скачать Отмель (2016) BDRip-AVC | iTunes Скачать Отмель (2016) BDRip-AVC | iTunes Скачать Отмель (2016) BDRip-AVC | iTunes
General
Unique ID : 197710302112350522286698726375779438391 (0x94BD9E7E557A4436A753A907E17F8F37)
Complete name : The.Shallows.2016.BDRip.AVC.mkv
Format : Matroska
Format version : Version 4 / Version 2
File size : 2.01 GiB
Duration : 1 h 26 min
Overall bit rate : 3 334 kb/s
Encoded date : UTC 2016-09-10 16:07:20
Writing application : mkvmerge v9.4.0 ('Knurl') 64bit
Writing library : libebml v1.3.4 + libmatroska v1.4.5

Video
ID : 1
Format : AVC
Format/Info : Advanced Video Codec
Format profile : [email protected]
Format settings, CABAC : Yes
Format settings, ReFrames : 11 frames
Codec ID : V_MPEG4/ISO/AVC
Duration : 1 h 26 min
Bit rate : 2 500 kb/s
Width : 1 024 pixels
Height : 428 pixels
Display aspect ratio : 2.40:1
Frame rate mode : Constant
Frame rate : 23.976 (24000/1001) FPS
Color space : YUV
Chroma subsampling : 4:2:0
Bit depth : 8 bits
Scan type : Progressive
Bits/(Pixel*Frame) : 0.238
Stream size : 1.51 GiB (75%)
Writing library : x264 core 148 r2638 7599210
Encoding settings : cabac=1 / ref=11 / deblock=1:-3:-3 / analyse=0x3:0x133 / me=umh / subme=9 / psy=1 / psy_rd=1.05:0.15 / mixed_ref=1 / me_range=55 / chroma_me=1 / trellis=2 / 8x8dct=1 / cqm=0 / deadzone=21,11 / fast_pskip=1 / chroma_qp_offset=-3 / threads=11 / lookahead_threads=2 / sliced_threads=0 / nr=0 / decimate=0 / interlaced=0 / bluray_compat=0 / constrained_intra=0 / bframes=11 / b_pyramid=2 / b_adapt=2 / b_bias=0 / direct=3 / weightb=1 / open_gop=0 / weightp=2 / keyint=240 / keyint_min=23 / scenecut=0 / intra_refresh=0 / rc=2pass / mbtree=0 / bitrate=2500 / ratetol=1.0 / qcomp=0.70 / qpmin=0 / qpmax=69 / qpstep=4 / cplxblur=20.0 / qblur=0.5 / ip_ratio=1.40 / pb_ratio=1.30 / aq=1:1.00
Language : English
Default : Yes
Forced : No
Color range : Limited
Color primaries : BT.709
Transfer characteristics : BT.709
Matrix coefficients : BT.709

Audio #1
ID : 2
Format : AC-3
Format/Info : Audio Coding 3
Mode extension : CM (complete main)
Format settings, Endianness : Big
Codec ID : A_AC3
Duration : 1 h 26 min
Bit rate mode : Constant
Bit rate : 384 kb/s
Channel(s) : 6 channels
Channel positions : Front: L C R, Side: L R, LFE
Sampling rate : 48.0 kHz
Frame rate : 31.250 FPS (1536 spf)
Compression mode : Lossy
Stream size : 237 MiB (12%)
Title : DUB [iTunes]
Language : Russian
Default : Yes
Forced : No

Audio #2
ID : 3
Format : AC-3
Format/Info : Audio Coding 3
Mode extension : CM (complete main)
Format settings, Endianness : Big
Codec ID : A_AC3
Duration : 1 h 26 min
Bit rate mode : Constant
Bit rate : 448 kb/s
Channel(s) : 6 channels
Channel positions : Front: L C R, Side: L R, LFE
Sampling rate : 48.0 kHz
Frame rate : 31.250 FPS (1536 spf)
Compression mode : Lossy
Stream size : 276 MiB (13%)
Language : English
Default : No
Forced : No

Text #1
ID : 4
Format : UTF-8
Codec ID : S_TEXT/UTF8
Codec ID/Info : UTF-8 Plain Text
Duration : 1 h 19 min
Bit rate : 1 b/s
Count of elements : 36
Stream size : 1.00 KiB (0%)
Title : Forced [iTunes]
Language : Russian
Default : Yes
Forced : No

Text #2
ID : 5
Format : UTF-8
Codec ID : S_TEXT/UTF8
Codec ID/Info : UTF-8 Plain Text
Duration : 1 h 19 min
Bit rate : 27 b/s
Count of elements : 460
Stream size : 15.9 KiB (0%)
Title : Full [iTunes]
Language : Russian
Default : No
Forced : No

Text #3
ID : 6
Format : UTF-8
Codec ID : S_TEXT/UTF8
Codec ID/Info : UTF-8 Plain Text
Duration : 4 min
Bit rate : 6 b/s
Count of elements : 13
Stream size : 200 Bytes (0%)
Title : Forced [iTunes]
Language : English
Default : No
Forced : No

Text #4
ID : 7
Format : UTF-8
Codec ID : S_TEXT/UTF8
Codec ID/Info : UTF-8 Plain Text
Duration : 1 h 17 min
Bit rate : 18 b/s
Count of elements : 446
Stream size : 10.3 KiB (0%)
Title : Full [iTunes]
Language : English
Default : No
Forced : No

Menu
00:00:00.000 : en:1
00:08:08.697 : en:2
00:15:09.409 : en:3
00:20:30.938 : en:4
00:25:44.876 : en:5
00:30:06.053 : en:6
00:36:03.118 : en:7
00:40:38.685 : en:8
00:45:40.611 : en:9
00:49:31.216 : en:10
00:55:56.976 : en:11
01:01:20.507 : en:12
01:06:21.558 : en:13
01:09:56.439 : en:14
01:13:37.701 : en:15
01:19:00.482 : en:16

Скачайте по прямой ссылке или выберите альтернативную раздачу из таблицы ниже:


Список Ваших закладок можно увидеть, нажав клавишу "Мои закладки".
При наличии нескольких ссылок для скачивания ОБЯЗАТЕЛЬНО проверяйте список файлов для того, что скачать именно то, что Вам нужно (к примеру определенные серии сериала)

Загрузил: Karasik (10 сентября 2016 21:00)
Управление: [обновить]
Взяли: 1 | Размер: 2.01 Gb
Статистика: Раздают: 239 Качают: 7 Скачали: 115906
Содержание:
The.Shallows.2016.BDRip.AVC.mkv (2.01 Gb)

загрузка...
Уважаемые пользователи! Ниже, для Вашего удобства, мы разместили несколько альтернативных раздач файла "Скачать Отмель (2016) BDRip-AVC | iTunes". Вам предоставляется возможность выбора из всевозможных доступных Repack'ов.


Поблагодарить:

На данной странице любой пользователь может скачать торрент Скачать Отмель (2016) BDRip-AVC | iTunes 2016 на высокой скорости. Для удобства пользователей, любые файлы у нас скачивают без регистрации и без рейтинга на сайте RuTracker2.org.

Мы всегда стараемся выкладывать самые свежие репаки, в том числе и Скачать Отмель (2016) BDRip-AVC | iTunes на русском языке (по возможности, если он официально выпущен в свободный доступ), поэтому добавляйте сайт rutracker2.org в закладки и в случае, если не доступен rutor.org или не работает rutracker.org мы всегда спешим к Вам на помощь, чтоб предоставить возможность скачать торренты.

Оставьте свой комментарий
Ваше Имя:
Ваш E-Mail:
Полужирный Наклонный текст Подчёркнутый текст Зачёркнутый текст | Выравнивание по левому краю По центру Выравнивание по правому краю | Вставка смайликов Вставка ссылкиВставка защищённой ссылки Выбор цвета | Скрытый текст Вставка цитаты Преобразовать выбранный текст из транслитерации в кириллицу Вставка спойлера
Кликните на изображение чтобы обновить код, если он неразборчив
Введите код:
Оставьте свой комментарий Вконтакте