Как тут искать? :: Кому задать вопрос? ::

Как определить качество фильма? :: Проблемы с запуском игр?


» » » В поисках Немо / Finding Nemo (2003) BDRip 720p | D, P, A

Скачать В поисках Немо / Finding Nemo (2003) BDRip 720p | D, P, A .torrent


Дайте оценку раздаче

Проголосовало: 0
В поисках Немо / Finding Nemo (2003) BDRip 720p | D, P, A
Информация о фильме
Название: В поисках Немо
Оригинальное название: Finding Nemo
Год выхода: 2003
Жанр: Мультфильм, драма, приключения, семейный
Режиссер: Эндрю Стэнтон, Ли Анкрич
В ролях: Альберт Брукс, Эллен ДеДженерес, Александр Гоулд, Уиллем Дефо, Эллисон Дженни, Джо Рэнфт, Джеффри Раш, Элизабет Перкинс, Эрик Бана, Эндрю Стэнтон
О фильме:
Среди прекрасных тропических морских стихий, в районе Большого барьерного рифа в уединении живет рыба-клоун по имени Марлин. Он растит своего единственного сыночка Немо. Океан и существующие в нем опасности очень страшат Марлина, и он как может ограждает сына от них, но молодой Немо, страдающий излишним любопытством, очень хочет разузнать побольше о таинственном рифе, рядом с которым они живут.
Когда Немо по иронии судьбы оказывается вдалеке от дома, да и еще сталкивается с угрозой стать обедом рыбы-танка, Марлин отправляется на поиски сына. Но Марлин, конечно же, понимает, что героический спасатель из него не получится и просит о помощи в поисках, Дори, королевскую синюю рыбу, которая хоть и страдает от того, что почти ничего не помнит, но добрее ее не отыскать во всем безбрежном океане!
Итак, наши герои отправляются в путешествие, в котором их подкарауливают многочисленные трудности и опасности…
Страна: США
Студия: Disney Enterprises Inc; Pixar Animation Studios, Walt Disney Pictures
Продолжительность: 01:40:54
Перевод: Профессиональный (полное дублирование) + Оригинал (Английский)
Отдельно: Профессиональный (многоголосый закадровый) С.Р.И + Профессиональный (полное дублирование) Украинский + Авторский (одноголосый закадровый) А.Гаврилов + Авторский (одноголосый закадровый) Ю.Живов + Авторский (одноголосый закадровый) А.Карповский + Авторский (одноголосый закадровый) Е.Гранкин + Профессиональный (двухголосый закадровый)
Файл
Кодек: AVC
Качество: BDRip 720p
Видео: 1280х720 (16:9), 23.976 fps, x.264, ~6905 kbps, 0.313 bit/(pixel*frame)
Аудио #1: 48 kHz, AC3 Dolby Digital, 3/2 (L,C,R,l,r) + LFE ch, ~640 kbps | Профессиональный (полное дублирование)
Аудио #2: 48 kHz, AC3 Dolby Digital, 3/2 (L,C,R,l,r) + LFE ch, ~640 kbps | Оригинал (Английский)
Отдельные звуковые дорожки
Аудио #3: 48 kHz, AC3 Dolby Digital, 3/2 (L,C,R,l,r) + LFE ch, ~640 kbps | Авторский (одноголосый закадровый) Андрей Гаврилов
Аудио #4: 48 kHz, AC3 Dolby Digital, 3/2 (L,C,R,l,r) + LFE ch, ~640 kbps | Авторский (одноголосый закадровый) Юрий Живов
Аудио #5: 48 kHz, AC3 Dolby Digital, 3/2 (L,C,R,l,r) + LFE ch, ~640 kbps | Профессиональный (многоголосый закадровый) С.Р.И.
Аудио #6: 48 kHz, AC3 Dolby Digital, 3/2 (L,C,R,l,r) + LFE ch, ~640 kbps | Профессиональный (полное дублирование) Украинский
Аудио #7: 48 kHz, AC3 Dolby Digital, 3/2 (L,C,R,l,r) + LFE ch, ~448 kbps | Профессиональный (двухголосый закадровый)
Аудио #8: 48 kHz, AC3 Dolby Digital, 3/2 (L,C,R,l,r) + LFE ch, ~448 kbps | Авторский (одноголосый закадровый) Антон Карповский
Аудио #9: 48 kHz, AC3 Dolby Digital, 1ch, ~128 kbps | Авторский (одноголосый закадровый) Евгений Гранкин
Субтитры: Русские (полные), english (полные,SDH)
Семпл
[spoiler=Скриншоты]В поисках Немо / Finding Nemo (2003) BDRip 720p | D, P, AВ поисках Немо / Finding Nemo (2003) BDRip 720p | D, P, AВ поисках Немо / Finding Nemo (2003) BDRip 720p | D, P, AВ поисках Немо / Finding Nemo (2003) BDRip 720p | D, P, AВ поисках Немо / Finding Nemo (2003) BDRip 720p | D, P, A
[/spoiler][spoiler=MediaInfo & x.264log]Общее
Уникальный идентификатор : 193062945857137888407267389419716412657 (0x913E9223BC6755CC8AAD5F801EE104F1)
Полное имя : D:VideoFinding_Nemo.2003.BDRip_720p.WazZzuP.mkv
Формат : Matroska
Версия формата : Version 4 / Version 2
Размер файла : 5,77 Гбайт
Продолжительность : 1 ч. 40 м.
Общий поток : 8188 Кбит/сек
Название фильма : Finding_Nemo.2003.BDRip_720p.WazZzuP for Kaztorka.org
Дата кодирования : UTC 2016-08-28 06:58:34
Программа кодирования : mkvmerge v9.4.0 ('Knurl') 32bit
Библиотека кодирования : libebml v1.3.4 + libmatroska v1.4.5
Attachments : poster.jpg
Видео
Идентификатор : 1
Формат : AVC
Формат/Информация : Advanced Video Codec
Профиль формата : [email protected]
Параметр CABAC формата : Да
Параметр ReFrames формата : 9 кадров
Идентификатор кодека : V_MPEG4/ISO/AVC
Продолжительность : 1 ч. 40 м.
Битрейт : 6905 Кбит/сек
Ширина : 1280 пикселей
Высота : 720 пикселей
Соотношение сторон : 16:9
Режим частоты кадров : Постоянный
Частота кадров : 23,976 (24000/1001) кадра/сек
Цветовое пространство : YUV
Субдискретизация насыщенности : 4:2:0
Битовая глубина : 8 бит
Тип развёртки : Прогрессивная
Бит/(Пиксели*Кадры) : 0.313
Размер потока : 4,87 Гбайт (84%)
Заголовок : Finding Nemo / В поисках Немо
Библиотека кодирования : x264 core 146 r2538 121396c
Настройки программы : cabac=1 / ref=9 / deblock=1:-3:-2 / analyse=0x3:0x113 / me=umh / subme=11 / psy=1 / psy_rd=0.60:0.00 / mixed_ref=1 / me_range=24 / chroma_me=1 / trellis=2 / 8x8dct=1 / cqm=0 / deadzone=21,11 / fast_pskip=0 / chroma_qp_offset=-2 / threads=3 / lookahead_threads=1 / sliced_threads=0 / nr=0 / decimate=1 / interlaced=0 / bluray_compat=0 / constrained_intra=0 / bframes=8 / b_pyramid=2 / b_adapt=2 / b_bias=0 / direct=3 / weightb=1 / open_gop=0 / weightp=2 / keyint=250 / keyint_min=23 / scenecut=40 / intra_refresh=0 / rc_lookahead=40 / rc=crf / mbtree=0 / crf=15.9 / qcomp=0.75 / qpmin=10 / qpmax=69 / qpstep=4 / vbv_maxrate=14000 / vbv_bufsize=14000 / crf_max=0.0 / nal_hrd=none / filler=0 / ip_ratio=1.40 / pb_ratio=1.30 / aq=2:0.90
Язык : English
Default : Да
Forced : Нет
Цветовой диапазон : Limited
Основные цвета : BT.709
Характеристики трансфера : BT.709
Коэффициенты матрицы : BT.709
Аудио #1
Идентификатор : 2
Формат : AC-3
Формат/Информация : Audio Coding 3
Расширение режима : CM (complete main)
Параметр Endianness формата : Big
Идентификатор кодека : A_AC3
Продолжительность : 1 ч. 40 м.
Вид битрейта : Постоянный
Битрейт : 640 Кбит/сек
Каналы : 6 каналов
Расположение каналов : Front: L C R, Side: L R, LFE
Частота : 48,0 КГц
Частота кадров : 31,250 кадров/сек (1536 spf)
Метод сжатия : С потерями
Размер потока : 462 Мбайт (8%)
Заголовок : Профессиональный (полное дублирование)
Язык : Russian
Default : Да
Forced : Нет
Аудио #2
Идентификатор : 3
Формат : AC-3
Формат/Информация : Audio Coding 3
Расширение режима : CM (complete main)
Параметр Endianness формата : Big
Идентификатор кодека : A_AC3
Продолжительность : 1 ч. 40 м.
Вид битрейта : Постоянный
Битрейт : 640 Кбит/сек
Каналы : 6 каналов
Расположение каналов : Front: L C R, Side: L R, LFE
Частота : 48,0 КГц
Частота кадров : 31,250 кадров/сек (1536 spf)
Метод сжатия : С потерями
Размер потока : 462 Мбайт (8%)
Заголовок : Оригинал
Язык : English
Default : Нет
Forced : Нет
Текст #1
Идентификатор : 4
Формат : UTF-8
Идентификатор кодека : S_TEXT/UTF8
Идентификатор кодека/Информация : UTF-8 Plain Text
Продолжительность : 1 ч. 32 м.
Битрейт : 104 бит/сек
Count of elements : 1327
Размер потока : 70,7 Кбайт (0%)
Заголовок : Полные
Язык : Russian
Default : Нет
Forced : Нет
Текст #2
Идентификатор : 5
Формат : UTF-8
Идентификатор кодека : S_TEXT/UTF8
Идентификатор кодека/Информация : UTF-8 Plain Text
Продолжительность : 1 ч. 32 м.
Битрейт : 70 бит/сек
Count of elements : 1493
Размер потока : 47,8 Кбайт (0%)
Заголовок : Полные
Язык : English
Default : Нет
Forced : Нет
Текст #3
Идентификатор : 6
Формат : UTF-8
Идентификатор кодека : S_TEXT/UTF8
Идентификатор кодека/Информация : UTF-8 Plain Text
Продолжительность : 1 ч. 32 м.
Битрейт : 73 бит/сек
Count of elements : 1575
Размер потока : 50,0 Кбайт (0%)
Заголовок : Полные, SDH
Язык : English
Default : Нет
Forced : Нет
Меню
00:00:00.000 : :01. New Parents
00:04:18.717 : :02. Main Titles
00:05:35.669 : :03. First Day of School
00:11:17.802 : :04. Field Trip
00:12:16.277 : :05. The Drop Off
00:14:08.848 : :06. Nemo Lost
00:16:29.280 : :07. Meeting Dory
00:18:50.338 : :08. Sharks
00:25:31.989 : :09. The Tank Gang
00:30:54.227 : :10. The Abyss
00:33:01.646 : :11. Anglerfish
00:36:11.836 : :12. Nemo's Initiation
00:40:19.167 : :13. Fish Impressions
00:44:58.279 : :14. Jellyfish
00:48:12.389 : :15. The Filter
00:51:28.419 : :16. Sea Turtles
00:56:07.030 : :17. News Travels
01:00:55.902 : :18. Off Ramp
01:05:20.667 : :19. Dory Speaks Whale
01:07:02.101 : :20. Algae
01:08:30.148 : :21. Inside the Whale
01:13:19.437 : :22. Sydney Harbour
01:14:15.201 : :23. The Aquascum
01:16:00.097 : :24. Pelicans
01:18:41.300 : :25. Darla!
01:21:57.621 : :26. Goodbye Dory
01:24:29.481 : :27. Nemo and Dory
01:26:54.334 : :28. Fishing Net
01:29:26.611 : :29. Reunion
01:30:51.363 : :30. Back on the Reef
01:32:42.974 : :31. Tank Escape
01:33:24.265 : :32. End Credits[spoiler=x.264log][/spoiler]
Автор рипа: DCF





Загрузка...

Как скачать В поисках Немо / Finding Nemo (2003) BDRip 720p | D, P, A?


  • Скачиваем, устанавливаем и запускаем программу u-Torrent
  • Скачиваем В поисках Немо / Finding Nemo (2003) BDRip 720p | D, P, A, нажав на зеленую ссылку или выбрав одну из раздач ниже в таблице, нажав на ссылку напротив названия
  • Двойным щелчком мыши открываем файл с расширением .torrent
  • Ожидаем полной загрузки файла

Скачайте по прямой ссылке или выберите альтернативную раздачу из таблицы ниже:


Список Ваших закладок можно увидеть, нажав клавишу "Мои закладки".
При наличии нескольких ссылок для скачивания ОБЯЗАТЕЛЬНО проверяйте список файлов для того, что скачать именно то, что Вам нужно (к примеру определенные серии сериала)

Загрузил: 2Nika (29 августа 2016 17:42)
Управление: [обновить]
Взяли: 1 | Размер: 5.77 Gb
Статистика: Раздают: 287 Качают: 104 Скачали: 877
Содержание:
Finding_Nemo.2003.BDRip_720p.WazZzuP.mkv (5.77 Gb)

загрузка...
Уважаемые пользователи! Ниже, для Вашего удобства, мы разместили несколько альтернативных раздач файла "В поисках Немо / Finding Nemo (2003) BDRip 720p | D, P, A". Вам предоставляется возможность выбора из всевозможных доступных Repack'ов.


Поблагодарить:

На данной странице любой пользователь может скачать торрент В поисках Немо / Finding Nemo (2003) BDRip 720p | D, P, A 2016 на высокой скорости. Для удобства пользователей, любые файлы у нас скачивают без регистрации и без рейтинга на сайте RuTracker2.org.

Мы всегда стараемся выкладывать самые свежие репаки, в том числе и В поисках Немо / Finding Nemo (2003) BDRip 720p | D, P, A на русском языке (по возможности, если он официально выпущен в свободный доступ), поэтому добавляйте сайт rutracker2.org в закладки и в случае, если не доступен rutor.org или не работает rutracker.org мы всегда спешим к Вам на помощь, чтоб предоставить возможность скачать торренты.

Оставьте свой комментарий
Ваше Имя:
Ваш E-Mail:
Полужирный Наклонный текст Подчёркнутый текст Зачёркнутый текст | Выравнивание по левому краю По центру Выравнивание по правому краю | Вставка смайликов Вставка ссылкиВставка защищённой ссылки Выбор цвета | Скрытый текст Вставка цитаты Преобразовать выбранный текст из транслитерации в кириллицу Вставка спойлера
Кликните на изображение чтобы обновить код, если он неразборчив
Введите код:
Оставьте свой комментарий Вконтакте